Показано с 1 по 6 из 6

Тема: Sony Vegas Pro - вопросы, просьбы, обсуждения

  1. #1
    Аватар для Finik517
    Зарегистрированные пользователи
    Статус : Finik517 вне форума
    Доп. информация

    Sony Vegas Pro - вопросы, просьбы, обсуждения

    Цель: Получить видео по качеству не хуже, чем с оригинала, размер видео получить примерно такой же как в оригинале. Многоканальный звук рендерю отдельно в АС3.
    Что получаю в итоге: Со звуком никаких проблем нет, размер видео примерно такой же как в оригинале, но качество картинки не устраивает, появляются какие-то артефакты (квадратит), местами заметна мощная пикселизация.

    Комп Core i7, Win7 64bit, ОЗУ 24Gb.
    Vegas: MAGIX Vegas Pro 14.0 Build 178 RePack by KpoJIuK 64 бит.

    Исходное видео с камеры Sony: 1920x1080 (макс. общий битрейт 24 Мбит/сек) AVCHD (.mts) H.264 High@4.0 чересстрочный, верхнее поле первое, 25 кадр/сек + звук AC3 48 КГц 448 Кбит/сек 6 каналов.

    Свойство проекта: HD 1080-50i (1920x1080; 25,000 кадр/c)
    Частота кадров 25к/сек (PAL),
    Формат пикселя 8бит,
    Визуализация с полным разрешением – Наилучшее,
    Тип размытия движения – Гаусово,
    Метод устранения чересстрочной развёртки – отсутствует
    Resemple mode – Disable.

    Настройки рендеринга:
    MainConcept AVC/AAC (mp4, avc)
    =потоковое видео Blu Ray 1920x1080-50i 25 Мбит/с
    Сведения: высокое,
    Частота кадров 25к/сек (PAL),
    Порядок полей: Сначала верхнее поле
    Соотношение сторон пикселя: 1,000,
    Количество кадров сверки: 2
    Переменный битрейт установил: максимум 24Мбит/сек, средний 22,5Мбит/сек.
    Количество слоёв: 4

    Прошу помогите, в чём проблема?

    Информация о исходном файле из МедиаИнфо:
    Формат/Информация : Advanced Video Codec
    Профиль формата : High@L4
    Параметр CABAC формата : Да
    Параметр RefFrames формата : 2 кадра
    Параметр GOP формата : M=2, N=13
    Идентификатор кодека : 27
    Продолжительность : 42 с. 560 мс.
    Вид битрейта : Переменный
    Битрейт : 21,2 Мбит/сек
    Максимальный битрейт : 22,0 Мбит/сек
    Ширина : 1920 пикселей
    Высота : 1080 пикселей
    Соотношение сторон : 16:9
    Частота кадров : 25,000 кадров/сек
    Цветовое пространство : YUV
    Субдискретизация насыщенности : 4:2:0
    Битовая глубина : 8 бит
    Тип развёртки : Чересстрочная
    Метод сохранения типа развёртки : Раздельные поля
    Порядок развёртки : Верхнее поле первое
    Бит/(Пиксели*Кадры) : 0.409
    Размер потока : 108 Мбайт (94%)

    Аудио
    Идентификатор : 4352 (0x1100)
    Идентификатор меню : 1 (0x1)
    Формат : AC-3
    Формат/Информация : Audio Coding 3
    Параметр Endianness формата : Big
    Идентификатор кодека : 129
    Продолжительность : 42 с. 656 мс.
    Вид битрейта : Постоянный
    Битрейт : 448 Кбит/сек
    Каналы : 6 каналов
    Расположение каналов : Front: L C R, Side: L R, LFE
    Частота : 48,0 КГц
    Частота кадров : 31,250 кадров/сек (1536 SPF)
    Битовая глубина : 16 бит
    Метод сжатия : С потерями
    Задержка видео : -80 мс.
    Размер потока : 2,28 Мбайт (2%)
    ServiceKind/String : Complete Main


    Информация о конечном файле после рендеринга:
    Общее
    Полное имя : C:\Users\User\Desktop\результат.avc
    Формат : AVC
    Формат/Информация : Advanced Video Codec
    Размер файла : 2,38 Мбайт
    Продолжительность : 640 мс.
    Режим общего битрейта : Переменный
    Общий поток : 31,2 Мбит/сек

    Видео
    Формат : AVC
    Формат/Информация : Advanced Video Codec
    Профиль формата : High@L4.1
    Параметр CABAC формата : Да
    Параметр RefFrames формата : 4 кадра
    Продолжительность : 640 мс.
    Вид битрейта : Переменный
    Максимальный битрейт : 24,0 Мбит/сек
    Ширина : 1920 пикселей
    Высота : 1080 пикселей
    Соотношение сторон : 16:9
    Частота кадров : 25,000 кадров/сек
    Стандарт вещания : NTSC
    Цветовое пространство : YUV
    Субдискретизация насыщенности : 4:2:0
    Битовая глубина : 8 бит
    Тип развёртки : Чересстрочная
    Метод сохранения типа развёртки : Раздельные поля
    Порядок развёртки : Верхнее поле первое
    Цветовой диапазон : Limited
    Основные цвета : BT.709
    Характеристики трансфера : BT.709
    Коэффициенты матрицы : BT.709

    На длительность не обращайте внимания, просто отрендерил короткий фрагмент, для МедиаИнфо.

  2. #2
    Аватар для V.I.D.E.O.
    Зарегистрированные пользователи
    Статус : V.I.D.E.O. вне форума
    Доп. информация

    Re: Sony Vegas Pro - вопросы, просьбы, обсуждения

    А камера какая?

  3. #3
    Аватар для neron8
    Супер-Модератор
    Статус : neron8 вне форума
    Доп. информация

    Re: Sony Vegas Pro - вопросы, просьбы, обсуждения

    Может здесь собака порылась:

    [Только зарегистрированные и активированные пользователи могут просматривать ссылки. ]

  4. #4
    Аватар для V.I.D.E.O.
    Зарегистрированные пользователи
    Статус : V.I.D.E.O. вне форума
    Доп. информация

    Re: Sony Vegas Pro - вопросы, просьбы, обсуждения

    Для NTSC другая частота кадров.Пусть смотрит в настройках.

  5. Нравится neron8 понравилось это сообщение
  6. #5
    Аватар для Александр ч.
    Зарегистрированные пользователи
    Статус : Александр ч. на форуме
    Доп. информация

    Re: Sony Vegas Pro - вопросы, просьбы, обсуждения

    Как это у вас получилось?
    В проекте и настройках рендеринга:
    [Только зарегистрированные и активированные пользователи могут просматривать ссылки. ]
    А на выводе имеем:
    [Только зарегистрированные и активированные пользователи могут просматривать ссылки. ]

  7. Нравится neron8 понравилось это сообщение
  8. #6
    Аватар для Finik517
    Зарегистрированные пользователи
    Статус : Finik517 вне форума
    Доп. информация

    Re: Sony Vegas Pro - вопросы, просьбы, обсуждения

    Отлично!!! Нет пикселов, нет артефактов! Сменил билд с 178 на 270! А насчёт NTSC в результате, думаю медиаинфо ошибается, результат 25 кадров/сек - PAL должен быть. Всем спасибо!

Информация о теме

Пользователи, просматривающие эту тему

Эту тему просматривают: 1 (пользователей: 0 , гостей: 1)

Ваши права

  • Вы не можете создавать новые темы
  • Вы не можете отвечать в темах
  • Вы не можете прикреплять вложения
  • Вы не можете редактировать свои сообщения
  •